Grateful dead flac downloads

grateful dead flac downloads 5. Live Grateful Dead Identifier GratefulDead Mediatype collection Num_top_ba 10 Numeric_id 3 Publicdate 2004 03 27 12 49 52 Publisher Internet Archive etree. Grateful Dead Help On The Way Slipknot The Grateful Dead 1967 39 Viola Lee Blues 39 . flac. blogspot Helping new and old comers navigate through listening choices in the sea of Grateful Dead shows available on and off line Preview Grateful Dead FM Broadcast December 1971 vol. 22 Disc 2 92 02 Grateful Dead Good Morning Little Schoolgirl. Records and was released in March 1967. Download live Grateful Dead and Jerry Garcia concerts SHN and MP3. 97. 9 GB Grateful Dead June 1976 Hi Res. net strategy with the quot Road Trips quot CD releases is moving forward looks like those CDs are being issued as a quot teaser quot for full show downloads or more precisely the CDs were issued and now associated full show downloads are appearing in the Store on dead. 3 Released 2012 Style Psychedelic Rock Format MP3 320Kbps FLAC Size 463 Mb. It was released on May 3rd 2005. In the summer of 2005 the Dead began offering download versions of both their existing live releases and a new Internet only series The Grateful Dead Download Series that was available through their own online store which offered the albums in both 256 kbit s mp3 files and FLAC files a preferred audio standard for those who archive Dead 12 Disc 1 92 01 Grateful Dead Jam. 50th. 3. 12 Disc 1 92 03 Grateful Dead Mind Left Body Jam. The third in a series of shows made available by downloading from the official Grateful Dead site. 2021 06 03 04 42 PM. A one off addition to the series of shows made available by downloading from the official Grateful Dead site. 01 Introduction Gotta Serve Somebody 02 Million Miles 03 Watching the River Flow 04 Make You Feel My Love 05 Silvio 06 My Blue Eyed Jane 07 It s All over Now Baby Blue 08 The Times They Are a Changin 09 Tangled up in Blue 10 Honky Tonk Blues 11 Can t Wait 12 Band Introduction Highway 61 Grateful Dead 39 s Concert History. org Show_related_music_by_track true Subject grateful dead jam rock jerry garcia Title Grateful Dead Title_message Free Music Artist Grateful Dead Album Dave s Picks Vol. Its spot in Grateful Dead lore was cast long ago as one reviewer remembers As far as 2 15 73 is concerned I still believe it is the epitome of the Grateful Dead. This is done at the request of the band The Grateful Dead is separated from the Live Music Archive into its own collection with its own forum to avoid confusion about lossless availability. 1k Transfer Info Dat Sony R500 gt Sound Devices 744T gt Samplitude Professional v11. Forever prized for natural sonics . net Lossless Legs downloads SBDs also. by Shadow55. Select Internet Options and click on the Security tab. See the FAQ and the collection 39 s policy notes below for more information. Grateful Dead Identifier GratefulDead Mediatype collection Num_top_ba 10 Numeric_id 3 Publicdate 2004 03 27 12 49 52 Publisher Internet Archive etree. Resume aborted downloads. rar. m. 4. Audio FLAC 16 bit 44. As more and more vendors and artists try to jump on the high resolution bandwagon it s clear that a lot of them are confused. 1 Grateful Dead 2020 From 4. JerryRadio. 1 12 FLAC Grateful Dead Complete Studio Albums Collection 1967 89 2013 FLAC 192kHz 24bit Label Warner Bros Rhino Country USAGenre RockQuality Grateful Dead Complete Download Series Vol. Preview Download Series Vol. Hell In A Bucket 02. BOB DYLAN THE BYRDS THE GRATEFUL DEAD THE EAGLES POCO AMERICA ALABAMA GRAM PARSONS. EDITION 3CD FLAC 2020 401. Grateful Dead Live at Folsom Field University of Colorado on 1980 06 07. Another poses the rhetorical question I ll still take 2 15 73 Madison over any other. 1 X Range quality 99. SOURCE 4 OF 9. LIVEDOWNLOADS Download Grateful Dead 30 Trips Around the Sun The Definitive Live Story 1965 1995 MP3 and FLAC Grateful Dead July 4 2015 Chicago Flac MP3 Streaming. The name that leaves nothing to change The Grateful Dead Download Series. The Traders 39 Den is a team of avid music collectors dedicated to the free trading of lossless unofficial aka bootleg musical audio and video recordings. The release features the complete show from April 30 1977 which was the second of a five night run at New York City 39 s Palladium. Preview Not What You Think Live Not What You Think Live Grateful Dead 2021 From 8. I then moved these files into Itunes to burn to a CD. org Show_related_music_by_track true Subject grateful dead jam rock jerry garcia Title Grateful Dead Title_message Free Music 2 4 1970 Grateful Dead Download Series Family Dog at The Great Highway San Francisco CA. Album Complete Live Rarities Collection. Cosmic Rock Is Not Dead 3. Quality FLAC 16 bit 44. grateful dead Road Trips full show FLAC downloads HDCD mastered sources it seems the dead. Grateful Dead Hour no. In contrast the Live Music Archive forum is a more general venue for discussion about thousands of other LMA bands and for more general technical questions about the LMA collection. Add. Tracklist 01 Bertha 02 Me and My Uncle 03 Tennessee Jed 04 Jack Straw 05 Loser 06 Playing In The Band 07 Sugaree 08 Beat It On Down The Line 09 Black Peter 10 Mexicali Blues Grateful Dead Download Series Vol 02 1970 01 18 Springer 39 s Inn In Portland Or Grateful Dead Download Series Vol 03 1971 10 26 The Palestra University At Rochester Ny 3cd Grateful Dead Download Series Vol 04 1976 06 18 Capitol Theatre Passaic Nj And Tower Th 3cd Grateful Dead Download Series Vol 05 1988 03 27 Hampton Coliseum In Hampton Va 3cd Grateful Dead Recording Info FOB Nakamichi 700 gt Cassette Master Sony TC D5M DSD Transfer Info Cassette Master Nakamichi CR 7A gt Tascam DA 3000 DSF 1 bit 5. Grateful Dead Road Trips Downloads 11 05 1979 amp 11 06 1979 The Spectrum Philly PA Dick 39 s picks are in the vault stopped at 36 volumes. Dick 39 s Picks Vol. 99 16 bit FLAC Preview Morning Dew Live at Barton Hall Cornell University Ithaca NY 5 8 77 The Grateful Dead was an American rock band formed in 1965 in Palo Alto California. 1 12 FLAC Filename C 92 Documents and Settings 92 Owner 92 My Documents 92 Torrent Downloads 92 Grateful Dead Fillmore West February 27 1969 2005 FLAC 92 CD1 92 01 Good Morning Little Schoolgirl. The Grateful Dead and our managing organizations have long encouraged the purely non commercial exchange of music taped at our concerts and those of our individual members. Start here. Download FLAC Amazon Drive. Born out of the burgeoning West Coast hippie scene in San Francisco 39 s Haight Ashbury district during the late 39 60s and inextricably linked to psychedelic experimentation the Grateful Dead blended Product Description. com Grateful Dead Smiling On A Cloudy Day flac download Grateful Dead Houston Texas 11 18 1972 flac download Grateful Dead Dead In Cornell Volume I flac download quot The Grateful Dead quot is the debut album of the Grateful Dead. If anyone has a link or if the OP sees this I d be very grateful for a pm with it Filename F 92 FLAC Files 92 Grateful Dead Dave 39 s Picks Vol. Summer Tour 2019 packages include all 19 shows for one special price. When Push Comes To Shove 09. When I Paint My Masterpiece 08. com Music. The Grateful Dead Forum is focused discussion area for the Grateful Dead. 50 for flac. Disc 1. Free Grateful Dead music is generally shared in the form of lossless FLAC Free Lossless Audio Codec or SHN Shorten files. 2019 Jesus Is King 48 24 Qobuz MQA WAV 44 24 88 24 TIDAL MQA including artwork 2010 GOOD Fridays included in the folder called 39 Digital Downloads 39 in 256 kbps m4a Downloads start instantly Not Avaliable Avaliable Fast download even when servers are busy Not Avaliable Avaliable Support for resuming downloads Not Avaliable Avaliable Support for download accelerators Not Avaliable Avaliable Dave s Picks 30 Download. There is an for XML heads. quot Grateful Dead Complete Download Series Vol. 53 Gb. Download your favorite Dead amp Company concerts. 50 each for MP3 and 16. 2 Disc 1 . 49 16 bit FLAC Preview Sugar Magnolia Live at the Capitol Theatre Port Chester NY 2 18 71 Grateful Dead July 5 2015 Chicago Flac MP3 Streaming. 7 GB Grateful Dead June 1976 MP3. All Music is from Grateful Dead allowed show tapers and thus there is no violation of copyright laws sharing this music. Grateful Dead Live Show Sets. Grateful Dead Download Series Volume 1 is the first in a series of digital downloads released by The Grateful Dead Productions. com Front covers. deadlistening. flac Friday Download Grateful Dead. Mickey Hart and the Hartbeats Primal Jammin 39 Grateful Dead Mega rare restored LP quot Living On The Edge quot Matrix 1968 10 08 30. West L. released August 9 1995. 16 bit FLAC. Grateful Dead FM Broadcast December 1971 vol. As flawless as any rustic album ever released the 1970 set now brims with soaring harmonies organic execution intertwined textures and uncomplicated structures. 1 5 23 69 5 24 69 Seminole Reservation Hollywood FL 92 04 Grateful Dead He Was A Friend Of Mine Live At Big Rock Pow Wow Music Festi. That means that this release is a mix of 24 192 and 16 44 FLACs 112 of the former and 10 of the latter. Jul 10 2018 Download Dead and Company June 16 2018 Citi Field New York NY MP3 and FLAC. Stadium Washington D. Some FLAC files as well. FLAC available for most as well as MP3. Tune Tree Free shn music downloads. 91. Tons Of Steel 06. 2020 Live In Atlanta November 11Th 1971. 01 Introduction Gotta Serve Somebody 02 Million Miles 03 Watching the River Flow 04 Make You Feel My Love 05 Silvio 06 My Blue Eyed Jane 07 It s All over Now Baby Blue 08 The Times They Are a Changin 09 Tangled up in Blue 10 Honky Tonk Blues 11 Can t Wait 12 Band Introduction Highway 61 Grateful Dead Initial release July 2005. Casey Jones Live at the Capitol Theatre Port Chester NY 2 21 1971 2020 Remaster Grateful Dead 2020 From 1. 9 Test CRC 7ACB6965 Copy CRC 7ACB6965 Copy OK Track 2 Grateful Dead Live Dead 2003 FLAC LOSSLESS Grateful Dead Live Dead 2003 FLAC LOSSLESS Top Downloads Albums You Must Hear Before Watch video Grateful Dead Daves Picks Volume 2017 FLAC rar Grateful. July 13 2015. 01 Used. 4. 05 23 69. The Grateful Dead Get High Res But They re a Bit Confused. AND IT AND I WILL BE BLOCKED FOR A WEEK IF THIS HAPPENS. I hope that 39 s okay. 30. MP3 320 KBPS. 1989 Live 2017 HDTracks FLAC 24bit 96kHz Grateful Dead Anthem Of The Sun 50th Anniversary Deluxe Edition 1968 Download Link Isra. net . When I burn the disc I get a second gap between songs that drives me crazy. Grateful Dead Rocking the Cradle Egypt 1978 2CD 1 DVD Set Amazon. 1 kHz Tracks Artist Grateful Dead Title Giants Stadium 1987 1989 1991 Released 2019 Style Rock RAR Size 5. From the Gastwirt Collection. wav Pre gap length 0 00 02. Part 1 29 10 Grateful Dead 4 1 80 Capitol Theatre Passaic NJ DRUMS gt Today the Grateful Dead has issued a new archival release entitled R. quot 5. The last show I saw before Jerry 39 s death was at RFK Stadium in Washington DC FREE GRATEFUL DEAD DOWNLOADS 30 Days of Dead 2017 Day of Dead 1 Uncle John s Band Baltimore MD Baltimore Civic Center 5 26 1977 Day of Dead 2 amp 8220 Grateful Dead Download Series Volume 12 is the twelfth in a series of live digital downloads of the band the Grateful Dead released by Grateful Dead Productions. 8 Charlotte Coliseum Charlotte NC 12 10 73 Live Grateful Dead 2009 From 13. The release comprises the full 2 4 70 show from the Family Dog at The Great Highway that was partly broadcast on PBS. If you have a high speed data connection quot Lossless quot is recommended. It was on this record that they stepped out from the shadows of psychedelic jamming and experimentation. Condition is quot Very Good quot . 1. shnflac. Sep 30 2014. 2 92 Grateful Dead 2011 Europe 39 72 Vol. Bob Dylan and Grateful Dead 1987 07 04 Foxboro MA SBD FLAC Soundboard FLAC quot Slow Train quot and quot Joey quot are released on the excellent album quot Dylan amp the Dead quot and are absent from this torrent. 02 Cosmic Charlie. It was released on April 4 2006 and is a two disc release of a complete show the band performed on April 17 1969 at the Washington University in St. Dead. Midnight Cafe Blog Various bands including GD. 3 Extraction speed 7. LIVEDOWNLOADS Download Grateful Dead American Beauty HD MP3 and FLAC See full list on en. TradeFriendly listings only please report any others to volunteer moderators there. 1 kHz Tracks Performer Grateful Dead. FLAC. 4 No. Lossless FLAC Direct Download Links updated 9 29 15 Ousterhout. May 31 July 6. By nyctaper. The shows are 14. Blues For Allah 1975 39 Franklin 39 s Tower 39 39 Help On The Way 39 . Grateful Dead flac16 Recording Info SBD gt Master Reel gt Dat 44. 01 Disc 1 92 03 Grateful Dead Mississippi Half Step. 62 GB WebSite Album Preview Curated by Grateful Dead archivist David Lemieux the Standard Edition comes with a download of some of the best tracks from the band s early years while the Deluxe Edition which is limited to 6 800 units comes with an unreleased 1968 Grateful Dead concert on vinyl. Browse through the exclusive Dead amp Company music catalog which includes all latest shows at legendary venues. Ousterhout. 321 kbps. 7 GB 2020 07 24 1 4 Grateful Dead To Terrapin Hartford Live 77 2009 3 CD FLAC . Studio Master Official Digital Download Front cover Grateful Dead Productions Warner Music. I saw a post here yesterday or two days ago with a link to download mp3s of Dave s Picks 30 and I never got a chance to download before OP took it down. They also have FAQ for new traders and links to download free software tools. zip 248 MB 1 Grateful Dead Complete Studio Albums Collection 2013 FLAC tracks 24 bit 192 kHz Time 521 14 minutes 19 4 GB. BitTorrent Music Downloads bt. Lineage Dat Sony PCM R500 gt Sound Devices 744T gt wav 16 44Edited amp Mastered by Joe Noel in Audacity Wave gt Flac 16 44. You may have to register before you can post click the register link above to proceed. Beauty. Albums are HDCD 22 Disc 2 92 01 Grateful Dead Morning Dew. 2. Deadheads and music geeks rejoice the Internet Archive hosts and curates a collection of over nine thousand live shows from the group. 80 kbps 160 kbps 320 kbps 800 kbps 1600 kbps 3200 kbps Lossless. Select a bitrate value for streaming tracks when playing online. An annual bonus disc is available to purchasers of a subscription to each year. EUROPE 39 72 contains 7 additional tracks including a 30 minute Pigpen led jam with quot Good Lovin 39 quot as the anchor contrasted with a lilting quot Looks Like Rain quot featuring some of Jerry Garcia 39 s last ever pedal steel guitar playing with the Grateful Dead and in its official debut the long sought after performance of quot The Stranger Two Souls In Communion . 2 Extraction speed 5. The Dead in Philly 1979. Live Downloads. Grateful Dead Download A Night At The Family Dog 2 4 70 Grateful Dead Initial release 2005. rock rush the rolling stones the who u2 van morrison yes . Grateful Dead The Best Of The Grateful Dead 2015 HDTracks FLAC 24 96 March 1 2018 admin Hi Res Digital Download Grateful Dead Complete Studio Albums Collection 1967 1989 2013 HDTracks FLAC 24 192 Grateful Dead live downloads in mp3 flac or online music streaming. Taper Ted Mattes and Paul Thompson. Grateful Dead Live at Deer Creek Music Center on 1991 06 07. C. If you get seriously involved in this hobby be prepared to start investing in storage. PhilZone. wav Peak level 97. 2. McGannahan Skjellyfetti was the collective credit the Grateful Dead assigned themselves for their group improvised forays. wav Peak level 94. com Hear an epic live version of the Grateful Dead 39 s quot Truckin 39 quot which previews an upcoming 19 disc box set 39 Pacific Northwest 39 73 39 74. CD 1. dead. Tracks. rar fast and secure Winterland June 1977 Complete FLAC Bonus 5 12 77 Auditorium Theatre Chicago Box sets May 11 16 77 July 78 View From Vault 1 4 7 90 6 91 6 90 7 87 The fourth installment in the Grateful Dead 39 s Download Series a series inaugurated in 2005 initially available as downloads on their website but popping up at various digital outlets later showcases two 1976 concerts from the band a June 18 1976 show at the Capitol Theatre in Passaic New Jersey followed by a gig at the Tower Theater in Philadelphia three days later. Regular Download Filename C 92 Users 92 Alexandre 92 Downloads 92 Torrents of Autumn 92 Grateful Dead 2011 Europe 39 72 Vol. 1. net. Published 2013. net Tapers Section Several mp3s from the Vault. The Dead. 2 40 34. July 19 2020. 6MHz gt dBpoweramp gt WAV 24 bit 96k FOB Recording by Jonathan Mow DSD Transfer by Charlie Miller Edited amp Mastered Adobe Audition by Joe Noel July 18 2020 Notes Thanks to Grateful Dead Daves Picks Vol. share as requested Grateful Dead Daves picks 37 alac m4a format Apple lossless 24 bit. Greatest Story Ever Told 04. June 07 2013. Stadium in See all the albums from Grateful Dead available on Napster. While the public mourning for Download FLAC Amazon Drive. The series was announced on the band 39 s official site at the end of October 2011 as a follow up to the Road Trips series 2008 2011 . Anyway thought I 39 d share my little project here since I spent like half a day on it. screen shot from the livestream The Grateful Dead ended abruptly and without much warning when after a disastrous Summer 1995 tour Jerry Garcia s body finally gave out and the band decided to formally retire the name. 7. 08 Used. Download Grateful Dead MP3 and FLAC. quot The Grateful Dead 39 s second 39 Dave 39 s Picks 39 live archival release of 2021 39 Dave 39 s Picks Volume 38 39 will feature the band 39 s September 8 1973 concert at Nassau Coliseum in Uniondale New York with GRATEFUL DEAD Saturday November 17 1973 Pauley Pavilion UCLA Los Angeles CA Soundboard Recording When I think back to some of the most pleasurable aspects of tape trading from back in the pre high speed days little compares to the anticipation of getting home to check the mailbox coupled with finding it crammed with padded envelopes full of tapes. Its 11 215 free Grateful Dead recordings should keep you busy for some time. All music Grateful Dead. Yml0Lmx5LzNvSDBBU1I . Audio FLAC 24 bit 96 kHz Tracks Performer Grateful Dead Album The Complete Sunshine Daydream Concert Live 8 27 72 Veneta Oregon Published 2013 Genre Rock File Size 3. Take this example of the Grateful Dead. Robert Bryant recording patched out of Oade Brothers Schoeps CMC4 MK41 gt PCM gt DAT. K. 15. com Lots of JGB amp Grateful Dead. The box set features every note played at the iconic band s concerts at R. Adaptive Mode. Verified Fan Presale May 19th 10AM local venue time May 20th 10PM local venue time. 39 and as Apple Lossless and FLAC downloads. 93. 00 Peak level 96. Loser 05. 1978. net GD Rolling Stones YMSB and many more. I felt it was better to leave the CD tracks as is instead of trying to resample them for consistency. This new hi res collection of the Grateful Dead s studio work has been painstakingly produced from the original master tapes of each album using their original mixes to produce a work that is truer to the original sound Grateful Dead Complete Live Rarities Collection 2013 FLAC. Artist Grateful Dead Title Dave 39 s Picks Volume 30 Fillmore East New York New York 1 02 1970 Year Of Release 2019 Label Rhino Genre Psychedelic Rock Quality Mp3 320 kbps FLAC tracks Total Time 05 06 27 Total Size 702 MB 1. 5 2 1970 Dick 39 s Picks Vol. 9 Test CRC 29006266 Copy CRC 29006266 Copy OK No errors occurred AccurateRip summary Track 1 accurately ripped confidence 53 2FFF1A25 Dead amp Company. FLAC tracks 24 bit 96 kHz Time 36 15 minutes 762 MB. Find them all here x. 01 Disc 1 92 04 Grateful Dead Weather Report Suite. Cloud gt gt gt Grateful Dead June 1976 FLAC. 65 Gb Every 2 Days Unlimited Speed No Waiting Time Streaming Video Simultaneous Download. Grateful Dead Show Sets Downloads. On the Security tab click the quot Custom Level quot button. Louis MO. Grateful Dead 1984 07 22 County Fairgrounds Ventura CA 24 bit FLAC dandrew 7 0 48. Grateful End by Dope Purple released 13 December 2019 1. In the Download section select Enable under quot Automatic prompting for file downloads quot and quot File download. Tonight is the last official performance of the band formerly known as The Grateful Dead . Plenty of Pig Pen offset with even more otherworldly jam outs. 01 Mason s Children 02 Casey Jones Acquista 39 The Very Best of the Grateful Dead di Grateful Dead 39 mp3 download online 7digital Italia Oltre 25 milioni di tracce di alta qualit nel nostro negozio. Recording Info If so the internet and specifically the Internet Archive s Grateful Dead collection has cranked the barrier to entry way down. Grateful Dead Filename F 92 Downloads 92 Grateful Dead 92 Road Trips Vol. Downloads are available for each of the shows in MP3 of flac formats. zip 1 35 Gb. 1 No. Is there any way to get rid of this. The Grateful Dead was an American rock band formed in 1965 in Palo Alto California. A. Listen to live concerts at nugs. 26 Electric Theater Chicago IL. Grateful Dead. Bertha 10 15 2010. You can browse the recordings by year so if you click on say 1973 you will see links to two hundred and ninety four recordings Download FLAC Amazon Drive. 2 Grateful Dead 2020 From 4. Download the entire concert or single track MP3s from livedownloads. Download packages are available in MP3 Lossless or Hi Res formats and include all 19 shows with a 10 discount. Grateful Dead Live at Bob Weir The performance the Dead put on in Madison took on a special character of its own. Available. 8 Harpur College Binghampton NY. reproduced and redirected and further recomposed by John Oswald. Preview Dead But Still Alive Live Dead But Still Alive Live Grateful Dead 2021 From 8. 2017. 4 Fillmore East New York NY. Lineage LPs gt Sound Forge gt Click and crackle removal tool gt FLAC via TLH level 6 sectors aligned and verified FLAC integrity checked. Side A October 8 1968 34 11 01 Dark Star. The band is known for its eclectic style which fused elements of rock folk country jazz bluegrass blues gospel and psychedelic rock for live performances of lengthy instrumental jams and for its devoted fan base known as quot Deadheads. Grateful Dead Download Series Vol. e. Virtually every song spun a yarn of an American past with an incredibly focused impact. . 1707 Week of June 7 2021 . 12 Washington University St. I SEE IM ABOUT TO HIT MY LIMITS ON MY CLOUD. Other albums. FLAC and MP3. Dick 39 s Picks cobbles together the best hunks from the two shows recorded. Download MP3 256kbps or Download FLAC The Dead Jerry Garcia guitar pedal steel piano vocals Phil Lesh bass guitar piano vocals Bob Weir guitar vocals Pigpen Ron McKernan harmonica vocals Mickey Hart percussion Bill Kreutzmann drums Robert Hunter songwriter Full album download includes Bonus Material Truckin 39 Warner Bros. This is certainly definitive classic Dead. Grateful Dead The Best Of The Grateful Dead 2015 HDTracks FLAC 24 96 March 1 2018 admin Hi Res Digital Download Grateful Dead Complete Studio Albums Collection 1967 1989 2013 HDTracks FLAC 24 192 Grateful Dead lossless flac amp shn file downloads. Dead amp Company Summer Tour 2019 Limited Edition CD Box Sets and downloads are now available. 04 26 69. Unlimited parallel downloads. 99. I have a Mac and converted the flac files into wav files with Xact. Grateful Dead Records. com. Charlie Miller. Argonaut 39 s Mediafire Folder All the GD50 Shows. Tracklist on next page. 1989. Music from the October 26 1971 show at The Palestra Rochester NY. Download Grateful. They take up a lot more space on your hard drive. com Front cover. org 39 s official Community Tracker. Two magical complete performances from Fall 39 79 the basis for Road Trips Vol. 08 Gb Tracklist Disc 1 01. Lossless. Preview Grateful Dead FM Broadcast December 1971 vol. Dead American. . Live For Live Music is a premier music media marketing and production company run by experienced music business professionals. 0 Test CRC 57BE2D02 Copy CRC 57BE2D02 Track not present in AccurateRip database Copy OK Track 6 Rhino has teamed up with the Grateful Dead online shop Dead. etree. Ramble On Rose 07. 2020 Daves Picks Volume 34 Jai Alai Fronton Miami Fl 6 23 74 Cd1. Audience made Grateful Dead concert recordings are available as downloads while available soundboards are accessible in streaming format only. 24 bit acoustic aerosmith array blues bob dylan bruce springsteen classic rock echo and the bunnymen eric clapton frank zappa grateful dead jazz jazz fusion jeff beck jethro tull led zeppelin paul mccartney pink floyd prince progressive rock queen r. The Grateful Dead Archive Online GDAO is a socially constructed collection comprised of over 45 000 digitized items drawn from the UCSC Library 39 s extensive Grateful Dead Archive GDA and from digital content submitted by the community and global network of Grateful Dead fans. 6 59. During the mid 1970s the Grateful Dead saga was unfolding like a Greek classic. In addition in order to fill out the third disc bonus material is included from the previous night at The Grateful Dead have been wildly unpredictable in their past music making but with quot Workingman 39 s Dead quot they did the totally unanticipated. In this week s FDL a slight slightly biased survey of work from one of our favorite bands the Grateful Dead. Sullivan Stadium Foxboro MA. Both MP3 and FLAC available. TuneTree Hosts trading friendly bands in lossless SHN and FLAC format. That a new medium of distribution has arisen digital audio files being traded over the Internet does not change our policy in this regard. These Spectrum shows 11 5 79 amp 11 6 79 are now available in both FLAC and MP3 documenting the band in the midst of their sparkling three week eastern swing and capturing the raw excitement of the first tours with keyboardist 24 bit acoustic aerosmith array blues bob dylan bruce springsteen classic rock echo and the bunnymen eric clapton frank zappa grateful dead jazz jazz fusion jeff beck jethro tull led zeppelin paul mccartney pink floyd prince progressive rock queen r. 1 12 FLAC Grateful Dead Complete Download Series Vol. Yesterday the band send out an email saying that they now have High Definition Dead. 140. all music played live by the Grateful Dead 1968 1992. Turn adaptive mode on to stream at the best possible quality supported by your current network connection. 03 gt FLAC All Transfers and Mastering By Charlie Miller this is a cleaned up version of source ID 109640. Series of The Grateful Dead archive recordings named after their actual tape archivist David Lemieux 2 . NYCTaper. Download Series Family Dog at the Great Highway San Francisco CA 7 4 70 Live Grateful Dead 2009 From 8. a. The Dead toured in 2009. Grateful Dead Dick 39 s Picks Vol. 2 13 1970 Dick 39 s Picks Vol. If you took an interest you d copy a few tapes listen to those over and over until they began to make sense The Grateful Dead Archive Online GDAO is a socially constructed collection comprised of over 45 000 digitized items drawn from the UCSC Library 39 s extensive Grateful Dead Archive GDA and from digital content submitted by the community and global network of Grateful Dead fans. 12 Disc 1 92 02 Grateful Dead China Cat Sunflower. 8 Charlotte Coliseum Charlotte NC 12 10 73 Live Download Series Vol. Verified Fan Registration May 13th 12PM PT May 16th 10PM PT. Click on the Tools button this is a button in IE 7 and a file option in IE 6 . over 14 000 free Grateful Dead concert recordings and counting available online. com Various bands. Grateful Dead Jerry Garcia Band Phil and Friends Bob Weir and RatDog Allman Brothers Band and More. quot Dark Star quot features the infamous quot Feeling Groovy quot jam that sets it apart from just about every other Dark Star ever played. The downloads are available in both 128 amp 256 MP3 and high quality lossless FLAC formats. Grateful Dead June 1976 2020 FLAC tracks 24 bit 192 kHz Time 14 10 57 minutes 27 2 GB Genre Rock. All music Grateful Dead. The band is known for its eclectic style which fused elements of rock folk country jazz bluegrass blues gospel and psychedelic rock for live performances of lengthy instrumental jams and for its devoted fan base known as quot Deadheads quot . PLEASE DONT SHARE THIS LINK OUTSIDE OF THIS GROUP. wikipedia. Anniversary DELUXE. 13 Studio albums 1967 89 gt Newest re mastering from the Original master tapes. Grateful Dead Blues For Allah 2013 FLAC Printable View. staff producers or engineers hampering their creative lifestyle and subsequent processes. Southwind Southwind 1968 Big Pink 2015 FLAC USA Psychedelic Pop Country Rock s. Buffalo and Chicago are not commercially available but the Hartford soundboard recording is 05 28 77 as quot To Terrapin quot as is the second of three nights at the Palladium in New York 04 30 77 released as the first installment in the Grateful Dead download series and three consecutive Southern dates 05 19 77 05 21 77 and 05 22 77 1. 2 2012 FLAC Dillon Stadium Hartford CT 7 31 74 92 CD1 92 05 Mississippi Half Step Uptown Toodeloo. net or download our mobile music app 3 months ago edited 3 months ago. Lossless audio files are huge compared to mp3s. F. Grateful Dead live downloads in mp3 flac or online music streaming. rar 1. Promised land 10. Fadeaway 03. 6 Track quality 99. Audio Torrents. cool grateful dead Road Trips full show FLAC downloads HDCD I recently just purchased my first Grateful Dead download from dead. According to bassist Phil Lesh in his autobiography Searching for the Sound My Life with the Grateful Dead the album was released as San Francisco 39 s Grateful Dead. Torrent Search Big english torrent search engine American Beauty 50th Anniversary Deluxe Edition Grateful Dead 2020 From 16. Taper tapes have been traded freely for years and this is some of my collection. 3 X Track quality 100. Download Grateful Dead MP3 and FLAC. rar 4. org etree. Preview buy and download high quality music downloads of The Grateful Dead by Grateful Dead from 7digital Norge We have over 30 million high quality tracks in our store. So what 39 s next for the Archive gurus of the Grateful Dead. Grateful Dead Long Stran FLAC . 4 GB 2018 2019 Yandhi fanmade compilations I advise you to get over this album and move on with your life mp3 amp flac. 2021 06 03. Choose a download type Download time. GRAYFOLDED was commissioned by the Grateful Dead. 22 Used. Official Digital Download Source HDTracks. 01 Disc 1 92 02 Grateful Dead Big River. org See full list on live grateful dead music. The Grateful Dead s third studio effort was also the first that the band did without any Warner Bros. 04 17 69. Road Trips Vol 4 No 1 Big Rock Pow Wow Music Festival Seminole Indian Village FL. Album information. rock rush the rolling stones the who u2 van morrison yes Talking HeadsOcean State Performing Arts CenterProvidence RI7 November 1980 Download FLAC Amazon Drive Master audience recording taped by Dan Lampinski CD101 Psycho Killer02 Warning Sign03 Stay Hungry04 Cities05 Band Introductions06 I Zimbra07 Drugs08 Once In A Lifetime09 Animals CD201 Houses In Motion02 Born Under Punches03 Crosseyed And Painless04 Life During Wartime05 E Take Me To Grateful Dead Smiling On A Cloudy Day 2017 AcousticSounds FLAC 24bit 192kHz Grateful Dead Grateful Dead Records Collection Remastered 2018 FLAC 24bit 192kHz Grateful Dead R. Workingman 39 s Dead defies the erroneous belief that the Grateful Dead never attained brilliance in the recording studio. Lossless FLAC ALAC. 01 Introduction Gotta Serve Somebody 02 Million Miles 03 Watching the River Flow 04 Make You Feel My Love 05 Silvio 06 My Blue Eyed Jane 07 It s All over Now Baby Blue 08 The Times They Are a Changin 09 Tangled up in Blue 10 Honky Tonk Blues 11 Can t Wait 12 Band Introduction Highway 61 Concert Vault flac downloads If this is your first visit be sure to check out the FAQ by clicking the link above. Preview Turn The Lights On Live Turn The Lights On Live Grateful Dead 2021 From 6. Bertha Disc 2 01. part1. It was recorded by Warner Bros. Single 7464 A Side Released 1 20 71 Streaming Quality. The entity known as NYCTaper would almost certainly not exist in its current incarnation were it not for the Grateful Dead and the tapers who captured the shows. Genres Blues 11 09 2019 17 28 1 339 soundmaster. grateful dead flac downloads